Game Of Thrones 2011 Season 06 S06 Web-DL 1080p 10bit 5.1 x265 HEVC-Qman[UTR]HoldDoor-ABR

seeders: 37
leechers: 24
updated:
Added by UniTeamCorp.47.13K in TV
Torrent verified. Downloaded 783 times.

DownloadFast Safe Anonymous
movies, software, shows...
  • View all Game of Thrones episodes
  • Season: Full 6th season
  • IMDb link: 0944947
  • TVmaze link: Game of Thrones
  • Original run: 05 December 2010 — Present
  • Summary:

    Seven noble families fight for control of the mythical land of Westeros. Friction between the houses leads to full-scale war. All while a very ancient evil awakens in the farthest north. Amidst the war, a neglected military order of misfits, the Night's Watch, is all that stands between the realms of men and the icy horrors beyond.

    Written by CGUploader2044
Available in versions: 1080p720p480pHDTVWEBRipx264x265
Game Of Thrones 2011 Season 06 S06 Web-DL 1080p 10bit 5.1 x265 HEVC-Qman[UTR]HoldDoor-ABR (Size: 11.26 GB)
  Game.Of.Thrones.S06E10.The.Winds.Of.Winter.Web-DL.1080p.10bit.5.1.x265.HEVC-Qman[UTR].HoldDoor-AB... 1.46 GB
  Game.Of.Thrones.S06E09.Battle.Of.The.Bastards.Web-DL.1080p.10bit.5.1.x265.HEVC-Qman[UTR].HoldDoor... 1.28 GB
  Game.Of.Thrones.S06E04.Book.Of.The.Stranger.Web-DL.1080p.10bit.5.1.x265.HEVC-Qman[UTR].HoldDoor-A... 1.16 GB
  Game.Of.Thrones.S06E08.No.One.Web-DL.1080p.10bit.5.1.x265.HEVC-Qman[UTR].HoldDoor-ABR.mkv 1.15 GB
  Game.Of.Thrones.S06E05.The.Door.Web-DL.1080p.10bit.5.1.x265.HEVC-Qman[UTR].HoldDoor-ABR.mkv 1.12 GB
  Game.Of.Thrones.S06E02.Home.Web-DL.1080p.10bit.5.1.x265.HEVC-Qman[UTR].HoldDoor-ABR.mkv 1.06 GB
  Game.Of.Thrones.S06E03.Oathbreaker.Web-DL.1080p.10bit.5.1.x265.HEVC-Qman[UTR].HoldDoor-ABR.mkv 1.03 GB
  Game.Of.Thrones.S06E06.Blood.Of.My.Blood.Web-DL.1080p.10bit.5.1.x265.HEVC-Qman[UTR].HoldDoor-ABR.mkv 1.02 GB
  Game.Of.Thrones.S06E07.The.Broken.Man.Web-DL.1080p.10bit.5.1.x265.HEVC-Qman[UTR].HoldDoor-ABR.mkv 1019.72 MB
  Game.Of.Thrones.S06E01.The.Red.Woman.Web-DL.1080p.10bit.5.1.x265.HEVC-Qman[UTR].HoldDoor-ABR.mkv 1010.84 MB

Description

image


imageimageimageimageimageimage


Format : Matroska
Format version : Version 4 / Version 2
File size : 1 011 MiB
Duration : 50mn 0s
Overall bit rate : 2 826 Kbps
Encoded date : UTC 2016-05-13 11:57:11
Writing application : mkvmerge v9.1.0 ('Little Earthquakes') 64bit
Writing library : libebml v1.3.3 + libmatroska v1.4.4

Video
ID : 1
Format : HEVC
Format/Info : High Efficiency Video Coding
Format profile : Main [email protected]@Main
Codec ID : V_MPEGH/ISO/HEVC
Duration : 50mn 0s
Bit rate : 2 504 Kbps
Width : 1 912 pixels
Height : 1 072 pixels
Display aspect ratio : 16:9
Frame rate mode : Constant
Frame rate : 23.976 (24000/1001) fps
Color space : YUV
Chroma subsampling : 4:2:0
Bit depth : 10 bits
Bits/(Pixel*Frame) : 0.051
Stream size : 896 MiB (89%)
Writing library : x265 1.9+141-02d79be487d7:[Windows][MSVC 1900][64 bit] 10bit
Encoding settings : wpp / ctu=64 / min-cu-size=8 / max-tu-size=32 / tu-intra-depth=1 / tu-inter-depth=1 / me=3 / subme=3 / merange=57 / no-rect / no-amp / max-merge=3 / temporal-mvp / no-early-skip / rdpenalty=0 / no-tskip / no-tskip-fast / strong-intra-smoothing / no-lossless / no-cu-lossless / no-constrained-intra / no-fast-intra / open-gop / no-temporal-layers / interlace=0 / keyint=250 / min-keyint=23 / scenecut=40 / rc-lookahead=25 / lookahead-slices=4 / bframes=4 / bframe-bias=0 / b-adapt=2 / ref=4 / limit-refs=3 / limit-modes / weightp / no-weightb / aq-mode=3 / qg-size=32 / aq-strength=1.00 / cbqpoffs=0 / crqpoffs=0 / rd=4 / psy-rd=2.00 / rdoq-level=2 / psy-rdoq=1.00 / no-rd-refine / signhide / deblock=-1:-1 / sao / no-sao-non-deblock / b-pyramid / cutree / no-intra-refresh / rc=2 / pass / bitrate=2500 / qcomp=0.60 / qpmin=0 / qpmax=51 / qpstep=4 / cplxblur=20.0 / qblur=0.5 / ipratio=1.40 / pbratio=1.30
Language : English
Default : Yes
Forced : No

Audio
ID : 2
Format : AAC
Format/Info : Advanced Audio Codec
Format profile : LC
Codec ID : A_AAC
Duration : 50mn 0s
Bit rate : 320 Kbps
Channel(s) : 6 channels
Channel positions : Front: L C R, Side: L R, LFE
Sampling rate : 48.0 KHz
Frame rate : 46.875 fps (1024 spf)
Compression mode : Lossy
Delay relative to video : 9ms
Stream size : 114 MiB (11%)
Language : English
Default : Yes
Forced : No

Take a seed, leave a seed please

image

Sharing Widget


Download torrent
11.26 GB
seeders:29
leechers:28
Game Of Thrones 2011 Season 06 S06 Web-DL 1080p 10bit 5.1 x265 HEVC-Qman[UTR]HoldDoor-ABR



To share this torrent use the code below and insert it into comments, status messages, forum posts or your signature.

Torrent: Game Of Thrones 2011 Season ...5 HEVC-Qman[UTR]HoldDoor-ABR

Trackers

tracker name
udp://tracker.openbittorrent.com:80/announce
udp://9.rarbg.com:2710/announce
http://retracker.krs-ix.ru/announce
udp://tracker.coppersurfer.tk:6969/announce
udp://9.rarbg.me:2710/announce
udp://glotorrents.pw:6969/announce
udp://p4p.arenabg.com:1337/announce
udp://tracker.opentrackr.org:1337/announce
µTorrent compatible trackers list

Locations

name
KickassTorrents
Torrent hash: 31F3428C1A80759B7DFCD10EC7D5F772FC3AA9FF

Uploader Comments

3
Leokosta6364
Thank you. Sorry for the newbish question, but which is better> this or the .perfecto ( that I already have ) ?

Last edited by Leokosta, 1 week ago

7
UniTeamCorp.47.13K
Uploader
The perfecto, the perfecto has better settings applied.
1
cikgutan31
where is the perfecto version..have u delete already?
2
UniTeamCorp.47.13K
Uploader

Top Comments

7
UniTeamCorp.47.13K
Uploader
The perfecto, the perfecto has better settings applied.
3
Bloksee4639
The Blu-ray will only come out in April 2017, they say think
3
TuesD179
Because that will be available when the bu ray comes out.
So next year.

All Comments

audio
10/10
video
10/10
please, leave only comments related to that torrent
Sign In

audio: 10video: 10
Thanks
audio: 10video: 10
Thanks for the awesome upload, any idea where Extra's/history compilation can be found? couldn't find any trace in DMCA section too? thnx!
Because that will be available when the bu ray comes out.
So next year.
The Blu-ray will only come out in April 2017, they say think
Thanks, we gotta wait then, guess no multi-language version until then too doh

audio: 10video: 10
Thanks for the great efforts!
Thank you. Sorry for the newbish question, but which is better> this or the .perfecto ( that I already have ) ?

Last edited by Leokosta, 1 week ago

The perfecto, the perfecto has better settings applied.
Thx for answering. Gonna help seed this aswell for some time.
sorry to ask newbish question again Q, if the perfecto better, why the size is lighter? sorry a little bit confuse...thx pall
Bframes=8

Increasing the B Frames can increase compression.
B‑frames can use both previous and forward frames for data reference to get the highest amount of data compression
A B‑frame ('Bi-predictive picture') saves even more space by using differences between the current frame and both the preceding and following frames to specify its content.

http://upload.wikimedia.org...ons/c/ce/Block_partition.jpg
Again, applied the better settings with the requested/perfecto.
Yes, I see. This torrent Bframes=4 . Very enlightning. Thanks again.


User Opinions

JoyBell181.43K, Leokosta6364, Inavel4152, TonyKong2572, ekstasee2064, majo0007870, Nahkis835, dmarbury729, nukex653, Neal143488 ... And 20 more
Report a bug Open chat
Sitemap